IPB

Hoşgeldiniz Ziyaretçi ( Üye Girişi | Üye Olmak İçin Tıklayın )


3 Sayfa V   1 2 3 >  
Reply to this topicStart new topic
> Paul_Van_Dyk-Live_At_Cream_Amnesia_(Nova969)-09-18, Gene Süper
Mood
mesaj 4/11/2003, 21:39
İleti #1


Kıdemli Üye
****



Katılım : 17/08/2003
Üye no : 214



Access to 32 Countries and 54 locations, PPTP, L2TP, SSTP, OpenVPN Supported, openvpn service EarthVPNPaul_Van_Dyk-Live_At_Cream_Amnesia_(Nova969)-09-18-2003
djmixes2k.com da 10 gün boyunca online olucak indirin derim..
Gene süper bir set..
Tracklist de sitede mevcut.. Gene de koyim..
Track list:

Part 1:
01. Marcos - Red Bullet
02. Terry Bones vs Fred Baker - Introspection (John Askew Remix)(Paul van Dyk Re-Edit)
03. Inzite - Spellbound
04. Paul van Dyk - Time of Our Lives (Paul van Dyk Club Mix)
05. Nick Lunn & YOMC pres Techno Punx - Energize (Paul van Dyk Re-Edit)
06. Chicane ft. Maire Brennan of Clannad ? Saltwater (Tomski vs Disco Citizens Mix)
07. Agnelli & Nelson pres. Ultra - Nothing
08. Modulation - Spirits (Cosmicman Remix)
09. Jaron Inc. - Overflow
10. Nu-NRG - Connective
11. Paul van Dyk feat Second Sun - Crush (Album Mix)
12. Motorcycle - As The Rush Comes (Sweeping Strings Remix)
13. Andain - Beautiful Things (Gabriel & Dresden?s Unplugged Mix)
14. Kim Sanders - Food for Thoughts (Humate Pop Dub)
15. FatBoy Slim - Star 69 (X-Press 2 Wine Em Dine Em Remix)
16. Marcel Woods - Time Is Running Out
17. 4 Strings - Revelation
18. Planet Perfecto - Bullet in The Gun (Instrumental)
19. DJ Tiesto - Traffic
20. Reloop - Fucking Society (Instrumental)
21. Paul van Dyk vs Marco V - For A Revolt
22. Mat Silver vs Tony Burt - Ultimate Wave (Paul van Dyk Rework)

Part2:
23. 14 Street - Children Trippin
24. Starchaser - Falling Star (Paul van Dyk Re-Edit)
25. Kuffdam - Balearic
26. Lustral - Everytime (Nalin & Kane Remix)
27. DJ Vesiga vs. Jomar - Nightoperator (Club Mix)
28. Modulation - Spirits (Sluslik Luna Remix)
29. Ralphie B - Massive (Paul van Dyk Rework)
30. Telescreen - All Engines (Remix)
31. Holden & Thompson - Nothing (93 Returning Mix)
32. Donald & Giles - Weekend Wonder (Donald & Giles Mix)
33. Rank 1 - Airwave 2003 (Breathing) (Breaks Dub)
34. Masters & Nickson - 5th Dimension (Instrumental)
35. The Thrillseekers - Synaesthesia (En-Motion Remix)
36. Polaris - Ripples Driver (Paul van Dyk Rework)
37. Nick Lunn & YOMC pres Techno Punx - Energize (Paul van Dyk Re-Edit)
38. Agnelli & Nelson pres. Ultra - Nothing
39. Nu-NRG - Dreamland
40. Project Zero - Omega Six (Paul van Dyk Rework)
41. Ruff Driverz - Dreamin' (Percussion Remix)
42. Paul van Dyk ft. Vega 4 - Time Of Our Lives (PvD Time To Chill Mix)
43. Paul van Dyk - Nothing But You (Original Mix)
Go to the top of the page
PM  
+Quote Post
acar
mesaj 4/11/2003, 21:46
İleti #2


Global Moderatör
Grup Simge



Katılım : 28/07/2003
Üye no : 11



07. Agnelli & Nelson pres. Ultra - Nothing
Pvd takmis bu sarkiya , benim gibi thumbsup.gif
Kuffdam - Balearic
Nu-Nrg gibi onlarida kanatlari altina aldi smile.gif


Bu ileti acar tarafından 4/11/2003, 21:50 yeniden düzenlenmiştir.
Go to the top of the page
PM  
+Quote Post
Mood
mesaj 4/11/2003, 21:51
İleti #3


Kıdemli Üye
****



Katılım : 17/08/2003
Üye no : 214



QUOTE(acar @ 4/11/2003, 09:46 PM)
07. Agnelli & Nelson pres. Ultra - Nothing
Pvd takmis bu sarkiya , benim gibi thumbsup.gif

Takılmicak gibi mi?? wacko.gif
Go to the top of the page
PM  
+Quote Post
Werewolf
mesaj 4/11/2003, 22:04
İleti #4


Paul van Duck
*****



Katılım : 21/07/2003
Üye no : 3



Cue Part 1

QUOTE
TRACK 01 AUDIO
TITLE "Marcos - Red Bullet"
INDEX 01 00:00:00
TRACK 02 AUDIO
TITLE "Terry Bones vs Fred Baker - Introspection (John Askew Remix) (Paul van Dyk Re-Edit)"
INDEX 01 04:45:00
TRACK 03 AUDIO
TITLE "Inzite - Spellbound"
INDEX 01 07:54:00
TRACK 04 AUDIO
TITLE "Paul van Dyk - Time of Our Lives (Paul van Dyk Club Mix)"
INDEX 01 13:56:00
TRACK 05 AUDIO
TITLE "Nick Lunn and YOMC p/Techno Punx - Energize (Paul van Dyk Re-Edit)"
INDEX 01 20:14:00
TRACK 06 AUDIO
TITLE "Chicane - Saltwater (Tomski vs Disco Citizens Mix)"
INDEX 01 25:47:00
TRACK 07 AUDIO
TITLE "Agnelli and Nelson p/Ultra - Holding Onto Nothing"
INDEX 01 33:11:00
TRACK 08 AUDIO
TITLE "Modulation - Spirits (Cosmicman Remix)"
INDEX 01 40:54:00
TRACK 09 AUDIO
TITLE "Jaron Inc. - Overflow"
INDEX 01 45:05:00
TRACK 10 AUDIO
TITLE "Nu-NRG - Connective"
INDEX 01 49:16:00
TRACK 11 AUDIO
TITLE "Paul van Dyk f/Second Sun - Crush (Album Mix)"
INDEX 01 55:27:00
TRACK 12 AUDIO
TITLE "Motorcycle - As The Rush Comes (Sweeping Strings Remix)"
INDEX 01 61:29:00
TRACK 13 AUDIO
TITLE "Andain - Beautiful Things (Gabriel and Dresden’s Unplugged Mix)"
INDEX 01 68:42:00
TRACK 14 AUDIO
TITLE "Kim Sanders - Food for Thoughts (Humate Pop Dub)"
INDEX 01 76:03:00
TRACK 15 AUDIO
TITLE "Fatboy Slim - Star 69 (X-Press 2 Wine Em Dine Em Remix)"
INDEX 01 81:11:00
TRACK 16 AUDIO
TITLE "Marcel Woods - Time Is Running Out"
INDEX 01 84:10:00
TRACK 17 AUDIO
TITLE "4 Strings - Revelation"
INDEX 01 89:13:00
TRACK 18 AUDIO
TITLE "Planet Perfecto - Bullet in The Gun (Instrumental)"
INDEX 01 93:34:00
TRACK 19 AUDIO
TITLE "DJ Tiesto - Traffic"
INDEX 01 99:13:00
TRACK 20 AUDIO
TITLE "Reeloop - Fucking Society (Instrumental)"
INDEX 01 104:32:00
TRACK 21 AUDIO
TITLE "Paul van Dyk vs Marco V - For A Revolt"
INDEX 01 108:08:00
TRACK 22 AUDIO
TITLE "Mat Silver vs Tony Burt - Ultimate Wave (Paul van Dyk Rework)"
INDEX 01 110:07:00


Cue Part 2

QUOTE
TRACK 01 AUDIO
TITLE "14 Street - Children Trippin"
INDEX 01 00:00:00
TRACK 02 AUDIO
TITLE "Starchaser - Falling Star (Paul van Dyk Re-Edit)"
INDEX 01 01:29:00
TRACK 03 AUDIO
TITLE "Kuffdam - Balearic"
INDEX 01 07:07:00
TRACK 04 AUDIO
TITLE "Lustral - Everytime (Nalin and Kane Remix)"
INDEX 01 12:07:00
TRACK 05 AUDIO
TITLE "DJ Vesiga vs Jomar - Nightoperator (Club Mix) "
INDEX 01 17:49:00
TRACK 06 AUDIO
TITLE "Modulation - Spirits (Sluslik Luna Remix)"
INDEX 01 24:09:00
TRACK 07 AUDIO
TITLE "Ralphie B - Massive (Paul van Dyk Rework)"
INDEX 01 28:34:00
TRACK 08 AUDIO
TITLE "Telescreen - All Engines (Unknown remix)"
INDEX 01 33:25:00
TRACK 09 AUDIO
TITLE "Holden and Thompson - Nothing (93 Returning Mix)"
INDEX 01 41:01:00
TRACK 10 AUDIO
TITLE "Donald and Giles - Weekend Wonder (Donald and Giles Mix)"
INDEX 01 45:15:00
TRACK 11 AUDIO
TITLE "Rank 1 - Airwave 2003 (Breathing) (Breaks Dub)"
INDEX 01 49:56:00
TRACK 12 AUDIO
TITLE "Masters and Nickson - 5th Dimension (Instrumental)"
INDEX 01 54:21:00
TRACK 13 AUDIO
TITLE "The Thrillseekers - Synaesthesia (En-Motion Remix)"
INDEX 01 58:44:00
TRACK 14 AUDIO
TITLE "Polaris - Ripple Driver (Paul van Dyk Rework)"
INDEX 01 65:22:00
TRACK 15 AUDIO
TITLE "Nick Lunn and YOMC p/Techno Punx - Energize (Paul van Dyk Re-Edit)"
INDEX 01 72:11:00
TRACK 16 AUDIO
TITLE "Agnelli and Nelson p/Ultra - Nothing"
INDEX 01 77:53:00
TRACK 17 AUDIO
TITLE "Nu-NRG - Dreamland"
INDEX 01 86:00:00
TRACK 18 AUDIO
TITLE "Project Zero - Omega Six (Paul van Dyk Rework)"
INDEX 01 92:11:00
TRACK 19 AUDIO
TITLE "Ruff Driverz p/Arrola - Dreaming (Percussion Remix)"
INDEX 01 96:34:00
TRACK 20 AUDIO
TITLE "Paul van Dyk f/Vega 4 - Time Of Our Lives (PvD Time To Chill Mix)"
INDEX 01 102:09:00
TRACK 21 AUDIO
TITLE "Paul van Dyk - Nothing But You (Original Mix)"
INDEX 01 105:30:00
Go to the top of the page
PM  
+Quote Post
Mood
mesaj 4/11/2003, 22:34
İleti #5


Kıdemli Üye
****



Katılım : 17/08/2003
Üye no : 214



Bu cue dosyalarını media playerda kullanabiliyor muyuz?
Yada nasıl kullanıyoruz???
Go to the top of the page
PM  
+Quote Post
Werewolf
mesaj 4/11/2003, 22:53
İleti #6


Paul van Duck
*****



Katılım : 21/07/2003
Üye no : 3



QUOTE(Mood @ 4/11/2003, 10:34 PM)
Bu cue dosyalarını media playerda kullanabiliyor muyuz?
Yada nasıl kullanıyoruz???

ben winampte kullaniyorum...

gerekli olan plug-in:

PROTECTED LINK Linkleri görebilmek için lütfen ÜYE Olunuz ( Please REGISTER to view links )
Go to the top of the page
PM  
+Quote Post
SunSurfer
mesaj 6/11/2003, 1:47
İleti #7


Üye
**



Katılım : 21/09/2003
Üye no : 375



QUOTE(Werewolf @ 4/11/2003, 10:53 PM)
QUOTE(Mood @ 4/11/2003, 10:34 PM)
Bu cue dosyalarını media playerda kullanabiliyor muyuz?
Yada nasıl kullanıyoruz???

ben winampte kullaniyorum...

gerekli olan plug-in:

PROTECTED LINK Linkleri görebilmek için lütfen ÜYE Olunuz ( Please REGISTER to view links )

biraz anlatsanıza bu cue dosyalarını .. cahillik işte kusura bakmayın huh.gif
Go to the top of the page
PM  
+Quote Post
Werewolf
mesaj 6/11/2003, 3:30
İleti #8


Paul van Duck
*****



Katılım : 21/07/2003
Üye no : 3



QUOTE(SunSurfer @ 6/11/2003, 01:47 AM)
biraz anlatsanıza bu cue dosyalarını .. cahillik işte kusura bakmayın huh.gif

plugini yukledikten sonra calistiriyosun, acilan yeni winamp penceresinden, istedigin sarkiyi secince, o dakika ve saniyeye jump ediyor (cuesheet'te yazan)

istersen de ayni cuesheeti kullanarak, liveseti cdye burn edersin, ve istedigin sarkilara next track yaparak gecersin...
Go to the top of the page
PM  
+Quote Post
SunSurfer
mesaj 6/11/2003, 15:25
İleti #9


Üye
**



Katılım : 21/09/2003
Üye no : 375



QUOTE(Werewolf @ 6/11/2003, 03:30 AM)
QUOTE(SunSurfer @ 6/11/2003, 01:47 AM)
biraz anlatsanıza bu cue dosyalarını .. cahillik işte kusura bakmayın  huh.gif

plugini yukledikten sonra calistiriyosun, acilan yeni winamp penceresinden, istedigin sarkiyi secince, o dakika ve saniyeye jump ediyor (cuesheet'te yazan)

istersen de ayni cuesheeti kullanarak, liveseti cdye burn edersin, ve istedigin sarkilara next track yaparak gecersin...

dediklerini yaptım.. yeni bir pencere açılmıo acaba winamp3 ten mi kaynaklanıo??

dosya winamp3 te plugin in içine yüklendi.. sora ordan çalıştırdım.. open with die sordu. winamp 3 ü seçtim.. winamp açıldı. ama onun dışında yeni bi pencere yoq. nese sora setlerenden birini çaldım ama herzamanki gibi çaldı. yani parçaların dakika ve saniye olarak jump etmedi..

nerde yanlış yapıorm sence??
Go to the top of the page
PM  
+Quote Post
ASOT_XXL
mesaj 7/11/2003, 23:37
İleti #10


Aktif Üye
***



Katılım : 7/08/2003
Üye no : 163



01. Marcos - Red Bullet--> I liked it
05. Nick Lunn & YOMC pres Techno Punx - Energize (Paul van Dyk Re-Edit) ->superb
06. Chicane ft. Maire Brennan of Clannad ? Saltwater (Tomski vs Disco Citizens Mix)-->vokalleri ve de vokallerle giren melodileri çok beğendim.
07. Agnelli & Nelson pres. Ultra - Nothing--Bayıldım.Orjinal bpm minde caldi bilmiorum ama 3-4 düşerse çok çok daha kulaga hoş gelicek bana göre

ve de ATRC yi daha fazla duymak istemiyorum.Hele AVB rmx aman aman..
14. şarkıya kadar dinleyebildim yorumlar devam edecek. wub.gif

Bu ileti ASOT_XXL tarafından 7/11/2003, 23:41 yeniden düzenlenmiştir.
Go to the top of the page
PM  
+Quote Post

3 Sayfa V   1 2 3 >
Reply to this topicStart new topic
1 kullanıcı bu başlığı okuyor (1 Misafir)
0 üye:

 

Collapse

> Benzer Konular

    Konu Başlığı Yanıtlar Konuyu Başlatan Okunma Son Faaliyet
No New Posts   8 escaLdes 1104 18/06/2011, 18:14
Son İleti: CemPasa
No New Posts   8 acar 640 25/12/2004, 15:54
Son İleti: Nitrogliserin
No New Posts   0 P.H.A.T.T 513 12/08/2007, 12:07
Son İleti: P.H.A.T.T
No New Posts   2 A.KARAARSLAN 655 28/12/2007, 19:22
Son İleti: A.KARAARSLAN
No New Posts   2 PoeticJustice 467 8/09/2008, 12:41
Son İleti: By_Dionysos
No New Posts 1 Ozzo 527 26/12/2009, 15:10
Son İleti: murtazahouse
No New Posts   1 CemPasa 506 30/03/2010, 21:18
Son İleti: paulvandyk1907
No New Posts   2 zatoichi 907 29/08/2011, 17:27
Son İleti: Progressive_
No New Posts   1 CemPasa 531 11/10/2012, 15:16
Son İleti: paulvandyk1907




Kelime Bulutu:

Tarih: 19/01/2020, 4:36